Black Sun

Welcome to our forum. Feel free to post a message.

Forum: Black Sun
Start a New Topic 
   Board|Threaded
Author
Comment
The Pacifier[2005]DvDrip[Eng]-HBN



The Pacifier[2005]DvDrip[Eng]-HBN > http://snipurl.com/2aeq9pn
























































b92c5eb40e
Posted on July 12, 2011 in Movies Comedy , downloaded 134 times , verified torrent Size: 1.47 GB , Seeds: 0 , Peers: 0 ( Updated December 31, 2015 - Refresh ) + vote: 0 - vote: 0 * Download via Magnet Link . Found on USENET . DOWNLOAD TORRENT . 2. Marai Mugam (2013) - Malaysian Tamil Movie - DVDRip - 500MB - X264 - AAC - EngSub - Team SRkavinadi on Sat May 03, 2014 1:52 amMarai Mugam (2013) - Malaysian Tamil Movie - DVDRip - 500MB - X264 - AAC - EngSub - Team SR > tinyurl.com/nhgsfhekavinadiPosts: 114Join date: 2014-03-09 . Jump to:Select a forum--4 w!N^--Pravila i Uputstva!--Sve u vezi 4 w!N^-a--ClanWar HQ--O Vama!--Counter Strike--Counter Strike Downloads--Screenshots!--Fuuuuuuuuun!--Slike--Sport--Druzenje!--Muzika. Popularity Bookmark Share with friends Add to Collection Send to Wall External Info www.youtube.com Wikipedia www.imdb.com Internal Files The Pacifier (2005) The Pacifier (2005).avi 700.22 MB Torrent downloaded from Demonoid.com.txt 47 Byte Hash Code 6ff6f9acf20386670f695c65ddc4d8cb4130ac44 Description IMDB - Wikipedia - Rotten Tomatoes - Official website - The Pacifier (2005) HQ trailer - www.youtube.com/watch?v=ttAyi-CYdB4Disgraced Navy SEAL Shane Wolfe is handed a new assignment: Protect the five Plummer kids from enemies of their recently deceased father -- a government scientist whose top-secret experiment remains in the kids' house. ------------------ Dutch Friends ------------------ You can find my Friends at: ------ They got my dutchs subs ---- and more ------ General: Complete name : The PacifierThe Pacifier.avi Format : AVI Format/Info : Audio Video Interleave File size : 1.47 GiB Duration : 1h 31mn Overall bit rate : 2 296 Kbps Video: Format : MPEG-4 Visual Format profile : SimpleL3 Format settings, BVOP : No Format settings, QPel : No Format settings, GMC : No warppoints Format settings, Matrix : Default (H.263) Codec ID : XVID Codec ID/Hint : XviD Duration : 1h 31mn Bit rate : 1 837 Kbps Width : 720 pixels Height : 304 pixels Display aspect ratio : 2.35:1 Frame rate : 25.000 fps Color space : YUV Chroma subsampling : 4:2:0 Bit depth : 8 bits Scan type : Progressive Bits/(Pixel*Frame) : 0.336 Stream size : 1.17 GiB (80%) Writing library : XviD 1.1.2 (UTC 2006-11-01) Audio: Format : AC-3 Format/Info : Audio Coding 3 Mode extension : CM (complete main) Codec ID : 2000 Duration : 1h 31mn Bit rate mode : Constant Bit rate : 448 Kbps Channel(s) : 6 channels Channel positions : Front: L C R, Side: L R, LFE Sampling rate : 48.0 KHz Bit depth : 16 bits Stream size : 293 MiB (20%) Alignment : Aligned on interleaves Interleave, duration : 32 ms (0.80 video frame) Interleave, preload duration : 32 ms .

8. 12. Top Movies ( auto generated report ) FILENAME SIZE SEEDS PEERS ADDED UPD The Last Witch Hunter (2015) WEB-DL all-lossless Movies - Adventure 1.45 GB 20032 2584 3 days 3 days The Last Witch Hunter 2015 1080p BluRay x264 DTS-JYK Movies - Action , Quality: Audio 9/10 - Video 9/10 2.69 GB 11019 16956 1 day 21 hours Exposed.2016.HDRip.XViD-ETRG Movies - Drama , Quality: Audio 9/10 - Video 9/10 706.32 MB 8173 9356 2 days 1 day Synchronicity 2015 HDRip XViD-ETRG Movies - Sci-Fi , Quality: Audio 8/10 - Video 8/10 705.07 MB 8227 5910 1 day 3 min Legend 2015 1080p BluRay x264 DTS-JYK Movies - Thriller , Quality: Audio 9/10 - Video 9/10 3.31 GB 5821 6883 2 days 23 hours Macbeth.2015.BRRip.XviD-ETRG Movies - Drama , Quality: Audio 9/10 - Video 9/10 710.3 MB 5549 6668 14 hours 1 hour Terminus.2015.HDRip.XviD.AC3-EVO Movies - Sci-Fi , Quality: Audio 8/10 - Video 8/10 1.41 GB 5361 5461 1 day 21 hours Airlift (2016) 1CD DesiSCR XviD MP3 - DUS Movies - Drama , Quality: Audio 7/10 - Video 7/10 707.2 MB 4976 6611 1 day 21 hours Rajamma Yahoo (2015) Malayalam DVDRip x264 AAC 5.1 E-Subs-MBRHDRG Movies - Asian 797.3 MB 4114 1126 23 hours 12 min AfterDeath.2015.HDRip.XviD.AC3-EVO Movies - Horror , Quality: Audio 8/10 - Video 8/10 1.37 GB 4825 6553 14 hours 2 hours. 11. udp://tracker.torrentbay.to:6969/announce 7. 0 anonymous • 03 Oct 2012, 08:18 Show comment audio: 8video: 8 good torrent and good movie but v -8 audio 8 that sucks.alittle reply close . IMDB: -- 95 min -- 4 March 2005 (USA) PG Genre: Action Comedy Drama IMDB Rating: 5.2/10 Directed by: Adam Shankman Writers: Thomas Lennon, Robert Ben Garant Starring: Vin Diesel, Brittany Snow and Max ThieriotCodeTITLE.[ The Pacifier YEAR.[ 2005 GENRE.[ Comedy Action RUNTiME.[ 1:35:21 IMDB RATING.[ 5.3/10 (18,952 votes) IMDB URL.[ AUDIO.[ MP3 48000Hz 114 kb/s CBR (2 chnls) LANGUAGE.[ English VIDEO.[ 900 kbps XviD 23.976 FPS RESOLUTiON.[ 720x304 SUBS.[ None SIZE.[ 700.22 MB SOURCE.[NTSC DVD RIP #.[ 4 RIP DATE.[ MAY/25/2009Screens Audio sample the Account of heartbraden thepiratebay.org Torrent location . kavinadiPosts: 114Join date: 2014-03-09 . 6.

Charm Tale Quest**NEW** Cheating Indian desi wife getting exposed by her secret lover MMS video [ 9 in 1 ]Shin Megami Tensei Persona 3 FES USA - English - PS2DVD comThe Lords of Salem (2012) 1080p BrRip x264 - YIFYCHANDER PAHAR- Radio Mirchi all episode.Joan Manuel Serrat -Album De Oro (Exitos)[Mp3]KORN - DISCOGRAPHY [_aizu_]Agua Para Elefantes [Dvdrip][spanish]Bound by Magick [#1-4][2011-13][Lauren Dane][mobi/epub/azw3]Belladonna and Lexington Steele Anal Threesome

Email